osu file format v14

[General]
AudioFilename: dr xyu.mp3
AudioLeadIn: 1500
PreviewTime: 21474
Countdown: 0
SampleSet: Soft
StackLeniency: 0.7
Mode: 0
LetterboxInBreaks: 1
WidescreenStoryboard: 1

[Editor]
Bookmarks: 66301,77336,132508,135274
DistanceSpacing: 0.9
BeatDivisor: 2
GridSize: 4
TimelineZoom: 1.8

[Metadata]
Title:Dr. Who! (Smooth Remix)
TitleUnicode:Dr. Who! (Smooth Remix)
Artist:Tujamo & Plastik Funk feat. Sneakbo
ArtistUnicode:Tujamo & Plastik Funk feat. Sneakbo
Creator:Natteke
Version:Aleks' Easy
Source:
Tags:grime dnb drum and bass trap ticclick zare Aleks719 Zarerion Irreversible
BeatmapID:547511
BeatmapSetID:207806

[Difficulty]
HPDrainRate:2
CircleSize:2
OverallDifficulty:2
ApproachRate:3
SliderMultiplier:0.6
SliderTickRate:1

[Events]
//Background and Video events
0,0,"bg.jpg",0,0
//Break Periods
2,44439,53834
//Storyboard Layer 0 (Background)
//Storyboard Layer 1 (Fail)
//Storyboard Layer 2 (Pass)
//Storyboard Layer 3 (Foreground)
//Storyboard Sound Samples

[TimingPoints]
102,344.827586206897,4,2,2,80,1,0
22170,-100,4,2,0,50,0,0
22515,-100,4,2,1,80,0,0
33033,-100,4,2,0,70,0,0
33377,-100,4,2,1,80,0,0
55274,-100,4,2,1,45,0,0
56653,-100,4,2,1,55,0,0
58033,-100,4,2,1,65,0,0
59412,-100,4,2,1,75,0,0
60791,-100,4,2,1,85,0,0
60964,-100,4,2,1,50,0,0
62170,-100,4,2,1,65,0,0
63550,-100,4,2,1,80,0,0
66308,-100,4,1,0,75,0,1
77257,-100,4,1,0,75,0,0
86653,-100,4,1,0,50,0,0
88377,-100,4,1,0,75,0,0
108550,-100,4,1,1,75,0,0
109584,-100,4,1,0,75,0,0
132602,-100,4,2,0,5,0,0

[Colours]
Combo1 : 17,254,176
Combo2 : 173,255,95
Combo3 : 255,88,100
Combo4 : 255,94,55

[HitObjects]
184,56,102,5,6,0:2:0:0:
328,56,791,1,8,0:0:0:0:
420,168,1481,2,0,B|441:205|441:248|424:284,1,120,2|8,0:0|0:0,0:0:0:0:
296,348,2860,5,4,0:0:0:0:
264,304,3205,1,2,0:0:0:0:
232,260,3550,1,8,0:0:0:0:
88,276,4239,2,0,B|70:237|73:194|92:160,1,120,2|8,0:0|0:0,0:0:0:0:
172,40,5619,6,0,B|212:62|257:63|296:48,1,120,4|8,0:0|0:0,0:0:0:0:
432,68,6998,1,2,0:0:0:0:
432,68,7343,1,2,0:0:0:0:
432,68,7688,1,8,0:0:0:0:
340,180,8377,2,0,L|328:304,1,120,4|8,0:0|0:0,0:0:0:0:
183,299,9757,2,0,L|172:180,1,120,0|8,0:0|0:0,0:0:0:0:
44,116,11136,6,0,L|55:235,1,120,4|8,1:0|0:0,0:0:0:0:
172,148,12515,2,0,L|196:80,2,60,2|2|8,0:0|0:0|0:0,0:0:0:0:
256,264,13895,1,0,0:0:0:0:
256,264,14584,1,8,0:0:0:0:
340,148,15274,2,0,L|316:80,2,60,2|2|8,0:0|0:0|0:0,0:0:0:0:
468,116,16653,6,0,L|456:235,1,120,2|8,0:0|0:0,0:0:0:0:
308,260,18033,1,2,0:0:0:0:
256,248,18377,1,2,0:0:0:0:
204,260,18722,1,8,0:0:0:0:
56,236,19412,1,2,0:0:0:0:
256,192,19584,12,4,22170,0:2:0:0:
280,132,23550,6,0,B|319:111|363:111|400:128,1,120,2|0,0:0|1:0,0:0:0:0:
424,268,24929,2,0,B|385:289|341:289|304:272,1,120,2|0,0:0|1:0,0:0:0:0:
256,252,25964,1,2,0:0:0:0:
204,272,26308,2,0,B|165:289|123:286|89:267,1,120,2|0,0:0|1:0,0:0:0:0:
132,124,27688,6,0,B|129:80|91:47|49:48,2,120,2|0|2,0:0|1:0|0:0,0:0:0:0:
172,160,29412,1,2,0:0:0:0:
224,176,29757,1,0,1:0:0:0:
300,52,30446,2,0,L|420:36,1,120,2|0,0:0|1:0,0:0:0:0:
472,172,31826,2,0,L|352:188,1,120,2|0,0:0|1:0,0:0:0:0:
212,208,33205,5,4,0:0:0:0:
72,170,33895,1,0,1:0:0:0:
35,309,34584,1,2,0:0:0:0:
174,347,35274,1,0,1:0:0:0:
316,312,35964,6,0,B|358:302|400:320|424:351,2,120,2|0|2,0:0|1:0|0:0,0:0:0:0:
276,276,37688,1,2,0:0:0:0:
240,236,38033,1,0,1:0:0:0:
108,176,38722,5,2,0:0:0:0:
44,48,39412,1,0,1:0:0:0:
188,52,40102,2,0,L|256:32,2,60,2|2|0,0:0|0:0|1:0,0:0:0:0:
300,144,41481,2,0,B|339:124|382:123|420:136,2,120,2|0|2,0:0|1:0|0:0,0:0:0:0:
180,228,43550,1,0,1:0:0:0:
148,272,43895,1,2,0:0:0:0:
132,324,44239,5,4,1:0:0:0:
196,300,55274,6,0,B|112:352|28:304|-20:208|40:108|124:76|212:124|256:192|256:192|300:260|388:308|472:276|532:176|484:76|396:48|348:76,1,960,2|0,1:2|1:0,0:0:0:0:
256,192,60964,12,4,64929,1:0:0:0:
280,300,66308,5,4,1:0:0:0:
328,276,66653,2,0,B|365:254|383:212|376:173,1,120,10|8,0:0|0:0,0:0:0:0:
252,100,68033,2,0,B|215:122|197:164|204:203,1,120,8|8,0:0|0:0,0:0:0:0:
208,256,69067,1,4,0:2:0:0:
228,308,69412,6,0,B|186:322|144:318|108:300,1,120,8|8,0:0|0:0,0:0:0:0:
32,180,70791,2,0,L|156:196,1,120,8|8,0:0|0:0,0:0:0:0:
204,204,71826,1,4,0:2:0:0:
256,196,72170,6,0,L|380:180,1,120,10|8,0:0|0:0,0:0:0:0:
324,48,73550,2,0,L|200:64,1,120,8|8,0:0|0:0,0:0:0:0:
56,68,74929,2,0,B|27:102|25:147|44:183,1,120,8|8,0:0|0:0,0:0:0:0:
24,324,76308,2,0,B|58:353|103:355|139:336,1,120,8|8,0:0|0:0,0:0:0:0:
184,312,77343,5,4,0:2:0:0:
216,268,77688,2,0,L|224:148,1,120,10|8,0:0|0:0,0:0:0:0:
312,32,79067,2,0,B|275:57|229:58|192:40,1,120,8|8,0:0|0:0,0:0:0:0:
108,160,80446,2,0,B|145:135|191:134|228:152,1,120,8|8,0:0|0:0,0:0:0:0:
296,276,81826,2,0,B|259:301|213:302|176:284,1,120,8|8,0:0|0:0,0:0:0:0:
136,256,82860,5,4,0:2:0:0:
96,220,83205,2,0,L|84:340,1,120,10|8,0:1|0:0,0:0:0:0:
228,336,84584,2,0,B|262:363|307:368|343:352,1,120,8|8,0:1|0:1,0:0:0:0:
392,328,85619,1,2,0:0:0:0:
420,280,85964,2,0,L|416:216,2,60,8|0|8,0:0|0:0|0:0,0:0:0:0:
368,260,86998,6,0,B|348:197|276:165|209:195|185:249,1,240,0|4,3:0|1:0,0:0:0:0:
164,304,88722,1,8,0:0:0:0:
276,340,89412,6,0,B|321:322|368:325|408:344,1,120,8|8,0:0|0:0,0:0:0:0:
484,228,90791,2,0,B|439:246|392:243|352:224,1,120,8|8,0:0|0:0,0:0:0:0:
232,180,92170,2,0,B|187:162|140:165|100:184,2,120,8|8|8,0:0|0:0|0:0,0:0:0:0:
280,204,93895,5,4,0:2:0:0:
328,228,94239,2,0,B|348:172|348:172|344:112,1,120,8|8,0:0|0:0,0:0:0:0:
200,108,95619,2,0,B|161:62|161:62|107:36,1,120,8|8,0:0|0:0,0:0:0:0:
72,176,96998,2,0,B|110:221|110:221|164:247,1,120,8|8,0:0|0:0,0:0:0:0:
204,284,98033,6,0,B|224:260|224:260|236:224,1,60,2|8,0:0|0:0,0:0:0:0:
284,216,98722,2,0,B|296:184|296:184|316:156,1,60,2|8,0:0|0:0,0:0:0:0:
348,124,99412,5,4,0:2:0:0:
360,72,99757,2,0,B|390:38|436:27|475:40,1,120,8|8,0:0|0:0,0:0:0:0:
452,180,101136,1,8,0:0:0:0:
416,220,101481,1,0,0:0:0:0:
368,248,101826,1,8,0:0:0:0:
276,360,102515,2,0,B|251:322|203:310|165:328,1,120,8|8,0:0|0:0,0:0:0:0:
36,272,103895,2,0,L|20:340,2,60,8|0|8,0:0|0:0|0:0,0:0:0:0:
52,220,104929,5,4,0:2:0:0:
68,168,105274,2,0,B|128:180|128:180|192:172,1,120,8|8,0:0|0:0,0:0:0:0:
324,136,106653,2,0,B|319:91|339:50|372:25,1,120,8|8,0:0|0:0,0:0:0:0:
454,128,108033,2,0,B|457:173|438:213|405:238,2,120,8|2|2,0:0|0:2|0:2,0:0:0:0:
284,256,110446,6,0,L|280:324,2,60,4|2|8,0:0|0:0|0:0,0:0:0:0:
180,156,111826,2,0,L|217:99,2,60,0|0|8,0:0|0:0|0:0,0:0:0:0:
144,296,113205,2,0,L|75:292,2,60,4|8|0,0:0|0:0|0:0,0:0:0:0:
192,320,114239,2,0,B|222:351|266:359|303:344,1,120,8|8,0:0|0:0,0:0:0:0:
440,292,115619,1,8,0:0:0:0:
440,292,115964,1,4,0:2:0:0:
440,292,116308,6,0,B|452:232|452:232|440:172,1,120,10|8,0:0|0:0,0:0:0:0:
300,208,117688,2,0,B|316:156|316:156|328:120|304:96,1,120,8|8,0:0|0:0,0:0:0:0:
212,208,119067,2,0,B|196:156|196:156|184:120|208:96,1,120,8|8,0:0|0:0,0:0:0:0:
256,72,120102,1,2,0:0:0:0:
304,96,120446,2,0,B|328:120|316:156|316:156|300:208,1,120,8|8,0:0|0:0,0:0:0:0:
256,240,121481,5,4,0:2:0:0:
228,284,121826,2,0,B|271:274|313:279|349:296,1,120,10|8,0:0|0:0,0:0:0:0:
480,340,123205,2,0,B|494:300|490:258|472:224,1,120,8|8,0:0|0:0,0:0:0:0:
344,292,124584,2,0,L|364:172,1,120,8|8,0:0|0:0,0:0:0:0:
392,128,125619,6,0,L|332:112,1,60,0|8,0:0|0:0,0:0:0:0:
284,132,126308,2,0,L|220:140,1,60,0|8,0:0|0:0,0:0:0:0:
172,148,126998,5,4,0:2:0:0:
120,140,127343,2,0,B|95:176|94:220|112:255,1,120,10|8,0:0|0:0,0:0:0:0:
228,344,128722,2,0,L|348:332,1,120,8|8,0:0|0:0,0:0:0:0:
400,320,129757,1,0,0:0:0:0:
452,340,130102,2,0,L|440:220,1,120,8|8,0:0|0:0,0:0:0:0:
468,172,131136,6,0,L|476:112,1,60,0|8,0:0|0:0,0:0:0:0:
424,96,131826,2,0,L|416:36,1,60,2|2,0:2|0:2,0:0:0:0:
364,20,132515,5,6,0:0:0:0:
256,192,132602,12,0,135274,0:0:0:0:
